HRPHONE COMMUNITY
Welcome on the "HR PHONE COMMUNITY" Forum.
__________________________________________________________

To take full advantage of everything shared by our forum, please "LOG IN" if you are already a member

OR

"JOIN OUR COMMUNITY" if you're not yet....

Tekken (2010) DVDRip

Go down

Tekken (2010) DVDRip

Post by HR PHONE on Fri Aug 06, 2010 3:08 am


Tekken (2010) DVDRip







Code:
http://www.imdb.com/title/tt0411951/



TiTLE...... Tekken
YEAR....... 2010
GENRE...... Action | Adventure | Drama | Fantasy | Sci-Fi
RUNTiME.... 1:32:30
iMDB RATE.. User Rating: 7.5/10 413 votes
iMDB URL... [You must be registered and logged in to see this link.]
Language... English

File: 359 MB (359 MB), czas 1:27:29, rodzaj: AVI,
Video: 289 MB, 463 Kbps, 25.0 fps, rozdz. 576*320 (16:9), h264 = H 264
Audio: 70 MB, 112 Kbps, 48000 Hz, 2 kanal(y), 0x55 = MPEG Layer-3, CBR,



KLIK:




VERSI DVDRIP JB XBUS AVI = 359MB

Code:
http://www.mediafire.com/?r6bywz97ynvz95j
http://www.mediafire.com/?cve5914do4xa083
Password : dikitik


Code:
http://hotfile.com/dl/59888758/bcd6c8f/tekn.rar.html


Code:
http://www.fileserve.com/file/jAcUUcf
ATAU
http://www.fileserve.com/file/aGz3qnd


VERSI DVDRIP JB XBUS AVI = 700MB

Code:
http://www.mediafire.com/?94arnfysav7rir0
http://www.mediafire.com/?4rflohlo4ywohhu
http://www.mediafire.com/?abjq07bjg20qzu5
http://www.mediafire.com/?nqdmeheesne5eii

Code:
http://www.megaupload.com/?d=KPLLPTOY
http://www.megaupload.com/?d=ALTJ0940
http://www.megaupload.com/?d=JVMI6DX3
http://www.megaupload.com/?d=7OQYF99H



Code:
http://www.ziddu.com/download/11088223/Tekken2010DVDRipindo.rar.html


VERSI DVDRip x264 AC3-MAGNET


KLIK:
General
Complete name : Tekken.2010.DVDRip.x264.AC3-MAGNET.avi
Format : AVI
Format/Info : Audio Video Interleave
File size : 634 MiB
Duration : 1h 27mn
Overall bit rate : 1 013 Kbps

Video
ID : 0
Format : AVC
Format/Info : Advanced Video Codec
Format profile : High@L3.0
Format settings, CABAC : Yes
Format settings, ReFrames : 3 frames
Codec ID : H264
Duration : 1h 27mn
Bit rate : 555 Kbps
Width : 720 pixels
Height : 402 pixels
Display aspect ratio : 16:9
Frame rate mode : Variable
Frame rate : 25.000 fps
Color space : YUV
Chroma subsampling : 4:2:0
Bit depth : 8 bits
Scan type : Progressive
Bits/(Pixel*Frame) : 0.077
Stream size : 347 MiB (55%)
Writing library : x264 core 85 Ubuntu_2:0.85.1448+git1a6d32-4

Audio
ID : 1
Format : AC-3
Format/Info : Audio Coding 3
Mode extension : CM (complete main)
Codec ID : 2000
Duration : 1h 27mn
Bit rate mode : Constant
Bit rate : 448 Kbps
Channel(s) : 6 channels
Channel positions : Front: L C R, Side: L R, LFE
Sampling rate : 48.0 KHz
Bit depth : 16 bits
Stream size : 280 MiB (44%)
Alignment : Aligned on interleaves
Interleave, duration : 40 ms (1.00 video frame)
[



KLIK:




Code:
http://www.mediafire.com/?q0jiebbenu40avo
http://www.mediafire.com/?egxjyx3bpknbldp
http://www.mediafire.com/?z5n4jigtgwmjuem
http://www.mediafire.com/?nzpu89ugv4dypcb


KLIK:
Code:
http://hotfile.com/dl/59833042/c371b9a/06_Tekken.2010.DVDRip.x264.AC3-MAGNET.avi.rar.html

Or

http://d01.megashares.com/dl/ORHypLd/Zmovie4U.com_Tekken.2010.DVDRip.x264.AC3-MAGNET.avi

Or

http://hotfile.com/dl/59824142/65a8431/Zmovie4U.com_Tekken.2010.DVDRip.x264.AC3-MAGNET.avi.html

Or

http://www.fileserve.com/file/yNZmhz2/Zmovie4U.com_Tekken.2010.DVDRip.x264.AC3-MAGNET.avi

Or

http://hotfile.com/dl/59825789/323c42b/_Tekken.2010.DVDRip.x264.AC3-MAGNET.avi.part1.rar.html
http://hotfile.com/dl/59825482/260032a/_Tekken.2010.DVDRip.x264.AC3-MAGNET.avi.part2.rar.html

Or

http://netload.in/dateiLN7TKIPJD9/_Tekken.2010.DVDRip.x264.AC3-MAGNET.avi.part1.rar.htm
http://netload.in/datei9bgEIMPkUi/_Tekken.2010.DVDRip.x264.AC3-MAGNET.avi.part2.rar.htm


Or [If you like my RS link plz donate some RAPID to 190016F831A00903D05CEC6586F98C5A this will help me to provide you more movies under RS host, thank you.]


http://rapidshare.com/files/411072745/_Tekken.2010.DVDRip.x264.AC3-MAGNET.avi.part1.rar.html
http://rapidshare.com/files/411072642/_Tekken.2010.DVDRip.x264.AC3-MAGNET.avi.part2.rar.html

_________________
M. DHANY FAYYADDHI ZHAFAR
avatar
HR PHONE
Administrator
Administrator

Jumlah posting : 151
Poin : 10511
Reputation : 2
Join date : 2010-01-06
Location : kediri

http://hrphone.darkbb.com

Back to top Go down

Back to top


 
Permissions in this forum:
You cannot reply to topics in this forum